• Aggressive
  • Asleep
  • Results 1 to 2 of 2

    Thread: Stumped (2003) Hindi Untouched 720p WEB-DL x264 - DDLC

    1. #1
      Rangers
      ..............................
       
      I am:
      Asleep
       
      MRG's Avatar
      Join Date
      Oct 2016
      Posts
      1,291
      Thanks Thanks Given 
      8
      Thanks Thanks Received 
      18
      Thanked in
      18 Posts
      Thumbs Up/Down
      Received: 13/0
      Given: 10/0
      Rep Power
      10

      0 Not allowed! Not allowed!

      Stumped (2003) Hindi Untouched 720p WEB-DL x264 - DDLC




      Stumped (2003) Hindi Untouched 720p WEB-DL x264 - DDLC

      Stmp (2003) Hindi Untouched WEB-DL x264 -DDLC.mkv
      Format : Matroska
      Format version : Version 4 / Version 2
      File size : 1.59 GiB
      Duration : 1h 56mn
      Overall bit rate : 1 952 Kbps


      Video
      ID : 1
      Format : AVC
      Format/Info : Advanced Video Codec
      Format profile : [email protected]
      Format settings, CABAC : Yes
      Format settings, ReFrames : 1 frame
      Format settings, GOP : M=1, N=25
      Codec ID : V_MPEG4/ISO/AVC
      Duration : 1h 56mn
      Bit rate mode : Constant
      Bit rate : 1 888 Kbps
      Nominal bit rate : 2 000 Kbps
      Width : 1 280 pixels
      Height : 720 pixels
      Display aspect ratio : 16:9
      Frame rate mode : Constant
      Frame rate : 25.000 fps
      Color space : YUV
      Chroma subsampling : 4:2:0
      Bit depth : 8 bits
      Scan type : Progressive
      Bits/(Pixel*Frame) : 0.082
      Stream size : 1.54 GiB (97%)
      Default : Yes
      Forced : No

      Audio
      ID : 2
      Format : AAC
      Format/Info : Advanced Audio Codec
      Format profile : LC
      Codec ID : A_AAC
      Duration : 1h 56mn
      Bit rate : 61.4 Kbps
      Channel(s) : 2 channels
      Channel positions : Front: L R
      Sampling rate : 48.0 KHz
      Frame rate : 46.875 fps (1024 spf)
      Compression mode : Lossy
      Stream size : 51.2 MiB (3%)
      Default : Yes
      Forced : No





      Single Link


      -:Heroupload:- -:Uploaded:- -:Nitroflare:- -:Rapidgator:- -:1fichier:- -:ClicknUpload:- -:usercloud:- -:Uptobox:- -:Multiup:-







      -: Screen shots:-




    2. #2
      Junior Member
      Proud to be a DDLCrazy Member.
       
      I am:
      ----
       

      Join Date
      Jan 2017
      Posts
      11
      Thanks Thanks Given 
      0
      Thanks Thanks Received 
      0
      Thanked in
      0 Posts
      Thumbs Up/Down
      Received: 1/0
      Given: 0/0
      Rep Power
      0

      0 Not allowed! Not allowed!
      Awesome share. Best place to hangout. Active moderators and uploaders. Best download forum for sure. Keep going.

    Similar Threads

    1. Stumped 2003 720p dvdrip/webrip [Completed]
      By anand.ptl90 in forum :: Movies ::
      Replies: 1
      Last Post: 01-11-2017, 06:08 PM
    2. Koi... Mil Gaya 2003 Untouched DVD9 NTSC DRs
      By MRG in forum :: BD50/DvD5/DvD9 ::
      Replies: 0
      Last Post: 01-10-2017, 06:04 PM
    3. Sangee 2003 (Bengali) 720p Untouched WEB-DL x264 - DDLC
      By MRG in forum :: Indian Bengali Movies::
      Replies: 0
      Last Post: 01-09-2017, 02:59 PM
    4. 10 Endrathukulla 2015 Untouched 720p WEB-DL x264 -DDLC
      By MRG in forum :: Tamil & Telegu Movies ::
      Replies: 0
      Last Post: 01-07-2017, 02:52 PM
    5. Replies: 0
      Last Post: 01-06-2017, 02:13 PM

    Tags for this Thread