The Girl On The Train 2016 720p BRRip x264 AAC 5.1- Hon3y


Format : Matroska
Format version : Version 4 / Version 2
File size : 1.13 GiB
Duration : 1h 52mn
Overall bit rate : 1 444 Kbps
Encoded By : [email protected] @ Hon3yHD


Video
ID : 1
Format : AVC
Format/Info : Advanced Video Codec
Format profile : [email protected]
Format settings, CABAC : Yes
Format settings, ReFrames : 8 frames
Codec ID : V_MPEG4/ISO/AVC
Duration : 1h 52mn
Bit rate : 1 250 Kbps
Width : 1 280 pixels
Height : 688 pixels
Display aspect ratio : 1.85:1
Frame rate mode : Constant
Frame rate : 23.976 (24000/1001) fps
Language : English
Default : Yes
Forced : No

Audio
ID : 2
Format : AAC
Format/Info : Advanced Audio Codec
Format profile : LC
Codec ID : A_AAC
Duration : 1h 52mn
Bit rate : 192 Kbps
Channel(s) : 6 channels
Channel positions : Front: L C R, Side: L R, LFE
Sampling rate : 48.0 KHz
Frame rate : 46.875 fps (1024 spf)
Compression mode : Lossy
Delay relative to video : 9ms
Stream size : 154 MiB (13%)
Language : English
Default : Yes
Forced : No

Text
ID : 3
Format : UTF-8
Codec ID : S_TEXT/UTF8
Codec ID/Info : UTF-8 Plain Text
Duration : 1h 44mn
Bit rate : 48 bps
Count of elements : 1334
Stream size : 37.1 KiB (0%)
Language : English
Default : Yes
Forced : No

Menu
00:00:00.000 : en:00:00:00.000
00:06:01.778 : en:00:06:01.778
00:09:29.903 : en:00:09:29.903
00:18:15.970 : en:00:18:15.970
00:25:26.150 : en:00:25:26.150
00:32:04.506 : en:00:32:04.506
00:37:04.973 : en:00:37:04.973
00:44:52.315 : en:00:44:52.315
00:49:22.459 : en:00:49:22.459
00:55:07.012 : en:00:55:07.012
00:59:36.031 : en:00:59:36.031
01:03:34.811 : en:01:03:34.811
01:09:25.787 : en:01:09:25.787
01:14:36.430 : en:01:14:36.430
01:19:08.702 : en:01:19:08.702
01:23:44.728 : en:01:23:44.728
01:28:07.491 : en:01:28:07.491
01:33:49.457 : en:01:33:49.457
01:38:54.554 : en:01:38:54.554
01:45:55.182 : en:01:45:55.182



Single Link


-:Uploaded:- -:Nitroflare:- -:Rapidgator:-

-:1fichier:- -:ClicknUpload:- -:usercloud:- -:Uptobox:- -:Multiup:-




-: Screen shots:-